Main Page Sitemap

Most popular

Mobile lottery uk sms

Make call, specifications, power supply, aC : 100V-240V AC, power adaptor output: DC 9V/2.5A.Terms/condition: If the selected Winner(s) is/are unable to sparkle slots reviews accept a prize in its entirety for any reason, the selected Winner(s) will forfeit the Prize and the Prize will be awarded to an


Read more

Acer aspire e5 ram upgrade

This post may contain affiliate links.If you have any problems, please contact us via our online contact form or call our office. Thanks Answer: Hi, Have you already bought the SSD and kit from us?It's thick, it has an optical drive, and it has plenty of legacy ports


Read more

Photoshop grayscale to color slots

If I were to actually print this example, hug me bingo facebook it would probably look pretty awful.You may want to open them, then move the windows aside, then bring this window to the front for reading.You can even edit preexisting gradients to perfect them.In my live seminar


Read more

Texas holdem regler kicker

Example Betting Round 2 There are five players at the table: Player 1 - Button Player 2 - Small blind (10) Player 3 - Big blind (25) Start of betting round Player 4 - Calls the big blind (25) Player 5 - Raises (50) Player.Hand ranks WIN percentage


Read more

Kerala lottery result website

Kerala Lottery Result.5.2019, karunya Lottery Result, karunya lottery result.5.2019 : Kerala state Weekly Lottery 395th Karunya thai lottery result gov draw (KR-395) will be held.Karunya Lottery Result details, prize structure and Draw places etc are listed here below.Draw Results Scheduled Tomorrow, subscribe Result of, pournami (RN-391st).The Kerala Karunya


Read more

Juego poker texas gratis

71.2 Juega al clásico solitario con una baraja de poker y consigue hacer todas las escaleras de color antes de que se agote el tiempo.W grze możesz współzawodniczyć z poker monte carlo 2018 live przyjaciółmi lub poznać nowych, próbując zdobyć miejsce w drużynie Poker Live Team Pro.Na znajdziesz


Read more

Indistrual silance bonus track madrugada




indistrual silance bonus track madrugada

Wheelchair (2010 Digital Remaster) 4:32.
Hush Sleep Tonight (1996 Demo) 3:41.Madrugada Shine (2010 Remastered Version.Wav" wave track 10 audio title "Belladonna" performer "Madrugada" index 01 00:00:00 file "11 - Norwegian Hammerworks Corp.Strange Colour Blue.Wav Peak level.8 Track quality.9 Test CRC 7102DC5F Copy CRC 7102DC5F Track not present in AccurateRip database Copy OK Track 9 Filename G:Temp09 - Salt.The album kicks off with the majestic "Vocal with its dense and thick guitar sound and singer Sivert Høyem's distinctive crooning on kung fu pocket rig top of it all.Madrugada Terraplane 99 (Live;2010 Rema.Wav Peak level.8 Track quality 100.0 Test CRC 9C318BD2 Copy CRC 9C318BD2 Track not present in AccurateRip database Copy OK Track 12 Filename G:Temp12 - Quite Emotional.Madrugada Highway.000.000 (2010 Remast.
Wav Peak level 100.0 Track quality 100.0 Test CRC 73CB7D28 Copy CRC 73CB7D28 Track not present in AccurateRip database Copy OK Track 5 Filename G:Temp05 - Sirens.
Madrugada Im In Love With You (2010 Rem.
Madrugada Higher (2010 Remastered Versio.
Wav Pre-gap length 0:00:01.06 Peak level.1 Track quality 100.0 Test CRC 6E56FDA5 Copy CRC 6E56FDA5 Track not present in AccurateRip database Copy OK Track 9 Filename G:Temp09 - 1990.wav Pre-gap length 0:00:01.89 Peak level.4 Track quality 100.0 Test CRC A7A7fcba Copy CRC A7A7fcba.
Madrugada Legends And Bones (From The.
Madrugada Strange Colour Blue (2010 Rema.Madrugada Norwegian Hammerworks Corp.Wav" wave track 02 audio title "Beautyproof" performer "Madrugada" index 01 00:00:00 file "03 - Shine.Madrugada Vocal (2010 Remastered Version.Release: size: 318.97 MB, genre: Rock, show/Hide NFO, download NFO.Wav Pre-gap length 0:00:02.20 Peak level.1 Track quality 100.0 Test CRC edce8174 Copy CRC edce8174 Track not present in AccurateRip database Copy OK Track 11 Filename G:Temp11 - Bill Skins Fifth.Wav" wave index 01 00:00:00 track 03 audio title "Sweet Simone (Demo performer "Madrugada" index 00 04:11:53 file "03 - Sweet Simone (Demo).wav" wave index 01 00:00:00 track 04 audio title "Strange Colour Blue (Alt performer "Madrugada" index 00 04:13:42 file "04 - Strange Colour.Wav" wave index 01 00:00:00 track 09 audio title "1990" performer "Madrugada" index 00 04:57:30 file "09 - 1990.wav" wave index 01 00:00:00 track 10 audio title "I'm Life's Wonderful Way Of Letting You Down" online casino australia legal performer "Madrugada" index 00 03:15:00 file "10 - I'm Life's.Wav" wave track 12 audio title "Mother Of Earth" performer "Madrugada" index 01 00:00:00 track 13 audio title "Legends And Bones (From 'The Shit City Sessions performer "Madrugada" index 00 04:21:52 file "13 - Legends And Bones (From 'The Shit City Sessions.wav" wave index.Their strength is not catchy three-minute pop songs; it is their epic, melancholic ballads like "Electric" and "Shine and intense rockers kortspill på 4 bokstaver like "Higher that make Madrugada stand out.I'm Life's Wonderful Way Of Letting You Down (2010 Digital Remaster) 4:12.Madrugada Strange Colour Blue (Alt.Quite Emotional (Live).





Wav Pre-gap length 0:00:00.92 Peak level.2 Track quality 100.0 Test CRC 02E7609D Copy CRC 02E7609D Track not present in AccurateRip database Copy OK Track 7 Filename G:Temp07 - The Riverbed.
Wav" wave track 09 audio title "Salt" performer "Madrugada" index 01 00:00:00 file "10 - Belladonna.
Wav" wave track 12 audio title "Quite Emotional" performer "Madrugada" index 01 00:00:00 track 13 audio title "Terraplane" performer "Madrugada" index 00 04:18:29 file "13 - Terraplane.

Sitemap